3 Idiots 720p Mkv Sample

3 Idiots 720p Mkv Sample — http://bit.ly/2jdnUpm

3 Idiots 720p Mkv Sample

Duration : 170 min Total Downloads : 157363 Subtitles : 3Idiots2009.BDRip.3-Idiots-2009-720p-BluRay-x264-Hindi-AAC—Ozlem.en (English) Like our facebook fan page to get every single update and news: Share Movie User Ratings Rating : 1.54 Rate : 1 2 3 4 5 Comments Tags: 3 Idiots (2009) Full Movie Download, Movie download in 3gp, mp4, hd, avi, mkv, for mobile, pc, android, tab free, 3 Idiots (2009) movie mp3 songs, 3 Idiots (2009) full hd movie download in 3gp,mp4,hd,avi,mkv, high quality for mobile,pc,tab,android free download . Download 3 Idiots 2009 Hindi DVDRip XviD E-SuB xRG TeamxRG 2010-07-21 15:19:29 949.63 MB 254 29 . Download (3D) 3 Idiots DVDRip 2009 (ICTV) SJonam 2012-06-28 20:56:13 1.39 Gigabyte 0 1 . Torrent verified by kat.ph. 3 Idiots (2009) Full Movie Download 3 Idiots (2009) HD Mobile Movie Download 3 Idiots (2009) Free Download HD Category : Evergreen Movies Source : BluRay Genre : Comedy Drama Starcast : Aamir Khan, Madhavan, Mona Singh Description : Two friends are searching for their long lost companion. Download 3 Idiots 2009 Hindi DVDRip Video Songs n Disk 2 XviD xRG TeamxRG 2010-07-23 08:03:43 724.79 MB 0 1 . Download 3 Idiots asn1985 2011-07-12 04:49:22 697.26 MB 0 2 . Download 3 Idiots 2009 Hindi 720p Subs Spa hca63.mkv hca63 2012-12-26 20:01:30 3.5 Gigabyte 0 1 . Download 3.Idiots.720p.Blury. Sample info: Duration: 02:51:07.29, start: 0.000000, bitrate: N/A Stream #0.0: Video: h264 (High), yuv420p, 1280×544 [PAR 1:1 DAR 40:17], 24 fps, 24 tbr, 1k tbn, 48 tbc (default) title : SaHiL-KHaN Stream #0.1(hin): Audio: aac, 48000 Hz, stereo, s16 (default) title : SaHiL-KHaN Stream #0.2(eng): Subtitle: [0][0][0][0] / 0×0000 (default) title : SaHiL-KHaN. 55a97c10fc
mini hd 720p flycam kamera pengintai
mastizaade video song 720p vs 1080i
suskunlar 720p full hd izle
video capture 1080p 60 fps webcam
project x 720p mkv download for windows
khali salam dua video 1080p
jo bhi main 1080p resolution
hd videos 1080p hindi videos latest 2015 nissan
11 inch laptop with 1080p screensavers
apa maksud dari 720p projector


IMPORTANTE. Los contenidos y/o comentarios vertidos en este servicio son exclusiva responsabilidad de sus autores así como las consecuencias legales derivadas de su publicación. Los mismos no reflejan las opiniones y/o línea editorial de Blogs de la Gente, quien eliminará los contenidos y/o comentarios que violen sus Términos y condiciones. Denunciar contenido.
AgenciaBlog